Strana 1 z 1

Air Strike (2018)

Napísané: Št Nov 08, 2018 5:51 pm
od užívateľa Aulyn
ponte napísal:Obrázok

Air Strike (2018)

Drama / Historický / Válečný

Čína, 2018, 132 min

Režie: Xiao Feng
Kamera: Shu Yang
Hrají: Ye Liu, Bruce Willis, Seung-heon Song, Adrien Brody, Shengyi Huang, Nicholas Tse, Bingbing Fan, Wei Fan, Simon Yam, Yuanzheng Feng, Hiu-Hing Lau, Chun-Ning Chang, Rumer Willis, Jiro Wang, Bing Hu, Ming Chen, Le Geng, Kenny Bee
Producenti: Buting Yang
Střih: Chi-Leung Kwong, Robert A. Ferretti

Počas druhej svetovej vojny sa piati rôzni čínski ľudia prebojovali útokmi japonských vzdušných síl na ochranu dôležitého vojenského stroja v Chongqingu v roku 1940.

Kód: Vybrať všetko

https://www.imdb.com/title/tt4743226/?ref_=fn_al_tt_1

https://www.csfd.cz/film/52491-ta-chung-ca/prehled/#
Format : Matroska
Format version : Version 4
File size : 3.31 GiB
Duration : 1 h 36 min
Overall bit rate : 4 900 kb/s

Video
Format : AVC
Format/Info : Advanced Video Codec
Format profile : High@L4
Format settings : CABAC / 5 Ref Frames
Format settings, CABAC : Yes
Format settings, ReFrames : 5 frames
Codec ID : V_MPEG4/ISO/AVC
Duration : 1 h 36 min
Bit rate : 4 514 kb/s
Width : 1 908 pixels
Height : 792 pixels

Display aspect ratio : 2.40:1
Frame rate mode : Constant
Frame rate : 23.976 (24000/1001) FPS

Audio
Format : AC-3
Format/Info : Audio Coding 3
Commercial name : Dolby Digital
Codec ID : A_AC3
Duration : 1 h 36 min
Bit rate mode : Constant
Bit rate : 384 kb/s
Channel(s) : 6 channels
Channel layout : L R C LFE Ls Rs
Sampling rate : 48.0 kHz
Frame rate : 31.250 FPS (1536 SPF)
Bit depth : 16 bits
Compression mode : Lossy
Delay relative to video : -42 ms
Stream size : 266 MiB (8%)
Language : English
Service kind : Complete Main
Default : Yes
Forced : No

Text
ID : 3
Format : UTF-8
Codec ID : S_TEXT/UTF8
Codec ID/Info : UTF-8 Plain Text
Duration : 1 h 26 min
Bit rate : 38 b/s
Count of elements : 861
Stream size : 24.5 KiB (0%)
Language : Czech
Default : Yes
Forced : No

Menu
00:00:00.000 : en:1
00:01:52.000 : en:2
00:12:01.000 : en:3
00:21:37.000 : en:4
00:32:36.000 : en:5
00:42:23.000 : en:6
00:52:30.000 : en:7
01:01:55.000 : en:8
01:13:21.000 : en:9
01:23:06.000 : en:10
01:28:33.000 : en:11

Kód: Vybrať všetko

http://www.fastshare.cz/10744406/the.bombing.2018.1080p.web-dl.dd5.1.h264-cmrg-ethd-1-.mkv