Vítaj na staro-novom fóre WARLINK.EU

Záčíname  nanovo a práve TERAZ máš šancu byť od nového začiatku v našej komunite tak neváhaj a ZAREGISTRUJ SA
Registráciou vstupuješ do súťaže o kredity na sťahovanie.

SuperFly (2018)

Filmy v originálnom znení, doplnené SK/CZ titulkami
Užívateľov profilový obrázok
RRRR5
Mierne pokročilý
Mierne pokročilý
Príspevky: 73
Dátum registrácie: So Aug 18, 2018 4:42 pm
Warlinks Body: 2,586.22
Udelil poďakovanie: 1 x
Obdržal poďakovanie: 0

SuperFly (2018)

Príspevok od užívateľa RRRR5 » Ut Aug 28, 2018 10:06 am

SuperFly (2018)


Obrázok

Kód: Vybrať všetko

https://www.csfd.cz/film/592651-superfly/prehled/



Superfly.2018.WEB-DL.XviD.AC3-FGT


1.61 GB

Kód: Vybrať všetko

Video
ID : 0
Format : MPEG-4 Visual
Format profile : Simple@L5
Format settings, BVOP : No
Format settings, QPel : No
Format settings, GMC : No warppoints
Format settings, Matrix : Default (H.263)
Codec ID : XVID
Codec ID/Hint : XviD
Duration : 1 h 56 min
Bit rate : 1 597 kb/s
Width : 720 pixels
Height : 384 pixels
Display aspect ratio : 1.85:1
Frame rate : 23.976 (24000/1001) FPS
Color space : YUV
Chroma subsampling : 4:2:0
Bit depth : 8 bits
Scan type : Progressive
Compression mode : Lossy
Bits/(Pixel*Frame) : 0.241
Stream size : 1.30 GiB (80%)
Writing library : Lavc58.1.100

Audio
ID : 1
Format : AC-3
Format/Info : Audio Coding 3
Codec ID : 2000
Duration : 1 h 56 min
Bit rate mode : Constant
Bit rate : 384 kb/s
Channel(s) : 6 channels
Channel positions : Front: L C R, Side: L R, LFE
Sampling rate : 48.0 kHz
Frame rate : 31.250 FPS (1536 SPF)
Bit depth : 16 bits
Compression mode : Lossy
Stream size : 319 MiB (19%)
Alignment : Aligned on interleaves
Interleave, duration : 42 ms (1.00 video frame)
Interleave, preload duration : 512 ms
Service kind : Complete Main

Fastshare.cz

Kód: Vybrať všetko

http://fastshare.cz/10324808/superfly.2018.web-dl.xvid.ac3-fgt-warlink.eu.avi
Ulozto.cz

Kód: Vybrať všetko

https://uloz.to/!uC4SsKyQv4FO/superfly-2018-web-dl-xvid-ac3-fgt-warlink-eu-avi

Napísať odpoveď