Vítaj na staro-novom fóre WARLINK.EU

Záčíname  nanovo a práve TERAZ máš šancu byť od nového začiatku v našej komunite tak neváhaj a ZAREGISTRUJ SA
Registráciou vstupuješ do súťaže o kredity na sťahovanie.

Pitbull: Last Dog (2018)

Filmy v originálnom znení, doplnené SK/CZ titulkami
Užívateľov profilový obrázok
Figaro
Pokročilý
Pokročilý
Príspevky: 163
Dátum registrácie: So Aug 18, 2018 12:24 pm
Warlinks Body: 4,562.39
Udelil poďakovanie: 1 x
Obdržal poďakovanie: 2 x

Pitbull: Last Dog (2018)

Príspevok od užívateľa Figaro » Po Aug 27, 2018 4:57 pm

Pitbull: Last Dog (2018)


Obrázok

Kód: Vybrať všetko

https://www.csfd.cz/film/601846-pitbull-ostatni-pies/prehled/



Pitbull.Last.Dog.2018.BDRip.x264-SPRiNTER


0.8 GB

Kód: Vybrať všetko

Video
ID : 1
Format : AVC
Format/Info : Advanced Video Codec
Format profile : High@L3.1
Format settings : CABAC / 8 Ref Frames
Format settings, CABAC : Yes
Format settings, RefFrames : 8 frames
Codec ID : V_MPEG4/ISO/AVC
Duration : 2 h 3 min
Bit rate : 702 kb/s
Width : 720 pixels
Height : 302 pixels
Display aspect ratio : 2.40:1
Frame rate mode : Constant
Frame rate : 24.000 FPS
Color space : YUV
Chroma subsampling : 4:2:0
Bit depth : 8 bits
Scan type : Progressive
Bits/(Pixel*Frame) : 0.135
Stream size : 622 MiB (81%)
Writing library : x264 core 157 r2932 303c484

Audio
ID : 2
Format : AAC
Format/Info : Advanced Audio Codec
Format profile : LC
Codec ID : A_AAC-2
Duration : 2 h 3 min
Bit rate : 159 kb/s
Channel(s) : 2 channels
Channel positions : Front: L R
Sampling rate : 48.0 kHz
Frame rate : 46.875 FPS (1024 SPF)
Compression mode : Lossy
Delay relative to video : 9 ms
Stream size : 141 MiB (18%)
Title : Polish AAC-LC 159 kbps
Language : Polish
Default : Yes
Forced : No

Text
ID : 3
Format : UTF-8
Codec ID : S_TEXT/UTF8
Codec ID/Info : UTF-8 Plain Text
Duration : 2 h 3 min
Bit rate : 51 b/s
Count of elements : 1227
Stream size : 46.4 KiB (0%)
Title : English
Language : English
Default : Yes
Forced : No

Fastshare.cz

Kód: Vybrať všetko

http://www.fastshare.cz/10317542/pitbull.last.dog.2018.bdrip.x264-sprinter-warlink.eu.mkv
Ulozto.cz

Kód: Vybrať všetko

https://uloz.to/!olEkHpmZ86JA/pitbull-last-dog-2018-bdrip-x264-sprinter-warlink-eu-mkv

Napísať odpoveď