Vítaj na staro-novom fóre WARLINK.EU

Záčíname  nanovo a práve TERAZ máš šancu byť od nového začiatku v našej komunite tak neváhaj a ZAREGISTRUJ SA
Registráciou vstupuješ do súťaže o kredity na sťahovanie.

The Padre (2018)

Filmy v originálnom znení, doplnené SK/CZ titulkami
Užívateľov profilový obrázok
Figaro
Pokročilý
Pokročilý
Príspevky: 163
Dátum registrácie: So Aug 18, 2018 12:24 pm
Warlinks Body: 4,562.39
Udelil poďakovanie: 1 x
Obdržal poďakovanie: 2 x

The Padre (2018)

Príspevok od užívateľa Figaro » Po Aug 27, 2018 4:56 pm

The Padre (2018)


Obrázok

Kód: Vybrať všetko

https://www.csfd.cz/film/638716-the-padre/videa/



The.Padre.2018.1080p.WEB-DL.DD5.1.H264-FGT


3.26 GB

Kód: Vybrať všetko

Video
ID : 1
Format : AVC
Format/Info : Advanced Video Codec
Format profile : High@L4
Format settings : CABAC / 5 Ref Frames
Format settings, CABAC : Yes
Format settings, ReFrames : 5 frames
Codec ID : V_MPEG4/ISO/AVC
Duration : 1 h 35 min
Bit rate : 4 521 kb/s
Width : 1 920 pixels
Height : 796 pixels
Display aspect ratio : 2.40:1
Frame rate mode : Constant
Frame rate : 23.976 (23976/1000) FPS
Color space : YUV
Chroma subsampling : 4:2:0
Bit depth : 8 bits
Scan type : Progressive
Bits/(Pixel*Frame) : 0.123
Stream size : 3.00 GiB (92%)
Title : The.Padre.2018.1080p.WEB-DL.DD5.1.H264-FGT
Language : English
Default : Yes
Forced : No
Color range : Limited
Color primaries : BT.709
Transfer characteristics : BT.709
Matrix coefficients : BT.709

Audio
ID : 2
Format : AC-3
Format/Info : Audio Coding 3
Codec ID : A_AC3
Duration : 1 h 35 min
Bit rate mode : Constant
Bit rate : 384 kb/s
Channel(s) : 6 channels
Channel positions : Front: L C R, Side: L R, LFE
Sampling rate : 48.0 kHz
Frame rate : 31.250 FPS (1536 SPF)
Bit depth : 16 bits
Compression mode : Lossy
Stream size : 261 MiB (8%)
Title : The.Padre.2018.1080p.WEB-DL.DD5.1.H264-FGT
Language : English
Service kind : Complete Main
Default : Yes
Forced : No

Fastshare.cz

Kód: Vybrať všetko

http://www.fastshare.cz/10317538/the.padre.2018.1080p.web-dl.dd5.1.h264-fgt-warlink.eu.mkv
Ulozto.cz

Kód: Vybrať všetko

https://uloz.to/!0cjkGVxzx1rq/the-padre-2018-1080p-web-dl-dd5-1-h264-fgt-warlink-eu-mkv

Napísať odpoveď