Vítaj na staro-novom fóre WARLINK.EU

Záčíname  nanovo a práve TERAZ máš šancu byť od nového začiatku v našej komunite tak neváhaj a ZAREGISTRUJ SA
Registráciou vstupuješ do súťaže o kredity na sťahovanie.

Blue Iguana (2018)

Filmy v originálnom znení, doplnené SK/CZ titulkami
Užívateľov profilový obrázok
RRRR5
Mierne pokročilý
Mierne pokročilý
Príspevky: 73
Dátum registrácie: So Aug 18, 2018 4:42 pm
Warlinks Body: 2,586.22
Udelil poďakovanie: 1 x
Obdržal poďakovanie: 0

Blue Iguana (2018)

Príspevok od užívateľa RRRR5 » Pi Aug 24, 2018 6:20 pm

Blue Iguana (2018)


Obrázok

Kód: Vybrať všetko

https://www.csfd.cz/film/479833-blue-iguana/komentare/



Blue.Iguana.2018.720p.AMZN.WEBRip.DDP5.1.x264-NTG


1.66 GB

Kód: Vybrať všetko

Video
ID : 1
Format : AVC
Format/Info : Advanced Video Codec
Format profile : High@L3.1
Format settings : CABAC / 5 Ref Frames
Format settings, CABAC : Yes
Format settings, ReFrames : 5 frames
Codec ID : V_MPEG4/ISO/AVC
Duration : 1 h 40 min
Bit rate : 1 708 kb/s
Width : 1 280 pixels
Height : 720 pixels
Display aspect ratio : 16:9
Frame rate mode : Constant
Frame rate : 23.976 (24000/1001) FPS
Color space : YUV
Chroma subsampling : 4:2:0
Bit depth : 8 bits
Scan type : Progressive
Bits/(Pixel*Frame) : 0.077
Stream size : 1.20 GiB (73%)
Default : Yes
Forced : No
Color range : Limited
Color primaries : BT.709
Transfer characteristics : BT.709
Matrix coefficients : BT.709

Audio
ID : 2
Format : E-AC-3
Format/Info : Enhanced Audio Coding 3
Codec ID : A_EAC3
Duration : 1 h 40 min
Bit rate mode : Constant
Bit rate : 640 kb/s
Channel(s) : 6 channels
Channel positions : Front: L C R, Side: L R, LFE
Sampling rate : 48.0 kHz
Frame rate : 187.500 FPS (256 SPF)
Compression mode : Lossy
Stream size : 462 MiB (27%)
Language : English
Service kind : Complete Main
Default : Yes
Forced : No

Text
ID : 3
Format : UTF-8
Codec ID : S_TEXT/UTF8
Codec ID/Info : UTF-8 Plain Text
Duration : 1 h 40 min
Bit rate : 75 b/s
Count of elements : 2224
Stream size : 55.6 KiB (0%)
Title : SDH
Language : English
Default : No
Forced : No

Fastshare.cz

Kód: Vybrať všetko

http://www.fastshare.cz/10300554/blue.iguana.2018.720p.amzn.web-dl.ddp5.1.h.264-ntg-warlink.eu.mkv
Ulozto.cz

Kód: Vybrať všetko

https://uloz.to/!VTN5gNV86gQ6/blue-iguana-2018-720p-amzn-web-dl-ddp5-1-h-264-ntg-warlink-eu-mkv

Napísať odpoveď