Vítaj na staro-novom fóre WARLINK.EU

Záčíname  nanovo a práve TERAZ máš šancu byť od nového začiatku v našej komunite tak neváhaj a ZAREGISTRUJ SA
Registráciou vstupuješ do súťaže o kredity na sťahovanie.

The After Party (2018)

Filmy v originálnom znení, doplnené SK/CZ titulkami
admin
Hlavný administrátor
Hlavný  administrátor
Príspevky: 17
Dátum registrácie: Ne Máj 27, 2018 6:00 pm
Warlinks Body: 443.24
Udelil poďakovanie: 2 x
Obdržal poďakovanie: 2 x

The After Party (2018)

Príspevok od užívateľa admin » Pi Aug 24, 2018 5:46 pm

The After Party (2018)


Obrázok

Kód: Vybrať všetko

https://www.csfd.cz/film/648249-the-after-party/komentare/



The.After.Party.2018.WEBRip.XviD.AC3-FGT


1.28 GB

Kód: Vybrať všetko

Video
ID : 0
Format : MPEG-4 Visual
Format profile : Simple@L5
Format settings, BVOP : No
Format settings, QPel : No
Format settings, GMC : No warppoints
Format settings, Matrix : Default (H.263)
Codec ID : XVID
Codec ID/Hint : XviD
Duration : 1 h 29 min
Bit rate : 1 585 kb/s
Width : 720 pixels
Height : 304 pixels
Display aspect ratio : 2.40:1
Frame rate : 23.976 (24000/1001) FPS
Color space : YUV
Chroma subsampling : 4:2:0
Bit depth : 8 bits
Scan type : Progressive
Compression mode : Lossy
Bits/(Pixel*Frame) : 0.302
Stream size : 1 018 MiB (78%)
Writing library : Lavc58.1.100

Audio
ID : 1
Format : AC-3
Format/Info : Audio Coding 3
Codec ID : 2000
Duration : 1 h 29 min
Bit rate mode : Constant
Bit rate : 448 kb/s
Channel(s) : 6 channels
Channel positions : Front: L C R, Side: L R, LFE
Sampling rate : 48.0 kHz
Frame rate : 31.250 FPS (1536 SPF)
Bit depth : 16 bits
Compression mode : Lossy
Stream size : 288 MiB (22%)
Alignment : Aligned on interleaves
Interleave, duration : 42 ms (1.00 video frame)
Interleave, preload duration : 512 ms
Service kind : Complete Main

Fastshare.cz

Kód: Vybrať všetko

http://www.fastshare.cz/10300451/the.after.party.2018.webrip.xvid.ac3-fgt-warlink.eu.avi
Ulozto.cz

Kód: Vybrať všetko

https://uloz.to/!ksoe3g3j1xBZ/the-after-party-2018-webrip-xvid-ac3-fgt-warlink-eu-avi

Napísať odpoveď