Vítaj na staro-novom fóre WARLINK.EU

Záčíname  nanovo a práve TERAZ máš šancu byť od nového začiatku v našej komunite tak neváhaj a ZAREGISTRUJ SA
Registráciou vstupuješ do súťaže o kredity na sťahovanie.

Ranam (2018)

Filmy v originálnom znení, doplnené SK/CZ titulkami
Užívateľov profilový obrázok
Aulyn
Začiatočník
Začiatočník
Príspevky: 38
Dátum registrácie: Ne Okt 28, 2018 4:06 pm
Warlinks Body: 1,857.84
Udelil poďakovanie: 0
Obdržal poďakovanie: 0

Ranam (2018)

Príspevok od užívateľa Aulyn » Pi Nov 09, 2018 12:18 pm

ponte napísal:Obrázok

Ranam (2018)

Akční / Krimi / Drama

Indie, 2018, 136 min

Režie: Nirmal Sahadev
Scénář: Nirmal Sahadev
Hrají: Prithviraj Sukumaran, Isha Talwar, Rahman, Nandu, Shyamaprasad

Kód: Vybrať všetko

https://www.imdb.com/title/tt6615894/?ref_=fn_al_tt_1

https://www.csfd.cz/film/629828-ranam/komentare/
Format : Matroska
Format version : Version 4
File size : 1.36 GiB
Duration : 2 h 16 min
Overall bit rate : 1 433 kb/s

Video
Format : AVC
Format/Info : Advanced Video Codec
Format profile : High@L4.1
Format settings : CABAC / 5 Ref Frames
Format settings, CABAC : Yes
Format settings, ReFrames : 5 frames
Codec ID : V_MPEG4/ISO/AVC
Duration : 2 h 16 min
Bit rate : 1 333 kb/s
Width : 1 280 pixels
Height : 540 pixels

Display aspect ratio : 2.40:1
Frame rate mode : Constant
Frame rate : 23.976 (24000/1001) FPS

Audio
Format : AAC LC
Format/Info : Advanced Audio Codec Low Complexity
Codec ID : A_AAC-2
Duration : 2 h 16 min
Bit rate : 96.0 kb/s
Channel(s) : 2 channels
Channel layout : L R
Sampling rate : 48.0 kHz
Frame rate : 46.875 FPS (1024 SPF)
Compression mode : Lossy
Stream size : 93.7 MiB (7%)
Title : http://www.Full4mvoies.co
Language : Malayalam
Default : Yes
Forced : No

Text #1
ID : 3
Format : VobSub
Muxing mode : zlib
Codec ID : S_VOBSUB
Codec ID/Info : Picture based subtitle format used on DVDs
Duration : 2 h 10 min
Bit rate : 4 220 b/s
Count of elements : 1448
Stream size : 3.93 MiB (0%)
Title : http://www.Full4mvoies.co
Language : English
Default : No
Forced : No

Text #2
ID : 4
Format : UTF-8
Codec ID : S_TEXT/UTF8
Codec ID/Info : UTF-8 Plain Text
Duration : 2 h 13 min
Bit rate : 44 b/s
Count of elements : 1480
Stream size : 43.7 KiB (0%)
Language : Czech

Kód: Vybrať všetko

http://www.fastshare.cz/10750030/ranam-2018-720p-malayalam-org-hdrip-x264-aac-esubs-by-full4movies-1-.mkv

Napísať odpoveď